* Dettagli Torrent   globale  | Commenti (0) 


- Io sono tempesta (2018).720p.H264.italian.Ac3-5.1.sub.ita.eng-MIRCrew -


Download via torrent:
Categoria bittorrent BDRip
Descrizione
Io sono tempesta 2018.720p.H264.italian.Ac3-5.1.sub.ita.eng-MIRCrew

by www.mircrew-releases.com


NO FOUND ONLY ORIGINAL RELEASE



My release is always in double track audio italian and Original audio
for select it use VLC or dvd player home
not use wmp

ENGLISH SUBTITLE INSIDE

Io sono tempesta 2018

Quality MIRCrew on HD 720p da  1,4 gb








Paese di produzione Italia
Anno 2018
Durata 97 min
Rapporto 2,35 : 1
Genere commedia, drammatico
Regia Daniele Luchetti
Sceneggiatura Daniele Luchetti, Sandro Petraglia, Giulia Calenda



   Marco Giallini: Numa Tempesta
   Elio Germano: Bruno
   Eleonora Danco: Angela
   Marcello Fonte: Il Greco



Numa Tempesta è un ricco uomo d’affari che, condannato per evasione fiscale, si trova a dover scontare la sua pena in un centro sociale. Da un lato cercherà di mantenere i contatti con i soci e gli acquirenti, dall'altro non prenderà coscienza subito dei bisogni dei senzatetto ospitati nel centro.



Numa Tempesta is a fascinating, charismatic, businessman at the top of his game. Driven by a ruthless, relentless need to succeed, Numa will stop at nothing to close a deal even if it means...









General
Unique ID                                : 68925621674694093468264416068671533459 (0x33DA9784EA5FB391AEB0077FDF027193)
Complete name                            : Io sono tempesta (201.720p.h264.ita.sub.ita.eng-MIRCrew\Io sono tempesta (201.720p.h264.ita.sub.ita.eng-MIRCrew.mkv
Format                                   : Matroska
Format version                           : Version 2
File size                                : 1.66 GiB
Duration                                 : 1h 41mn
Overall bit rate                         : 2 335 Kbps
Movie name                               : MIRCrew
Encoded date                             : UTC 2018-10-06 15:50:18
Writing application                      : Lavf54.63.100
Writing library                          : Lavf54.63.100

Video
ID                                       : 1
Format                                   : AVC
Format/Info                              : Advanced Video Codec
Format profile                           : [email protected]
Format settings, CABAC                   : Yes
Format settings, ReFrames                : 2 frames
Codec ID                                 : V_MPEG4/ISO/AVC
Duration                                 : 1h 41mn
Bit rate                                 : 1 900 Kbps
Width                                    : 1 280 pixels
Height                                   : 528 pixels
Display aspect ratio                     : 2.40:1
Frame rate mode                          : Variable
Frame rate                               : 24.000 fps
Color space                              : YUV
Chroma subsampling                       : 4:2:0
Bit depth                                : 8 bits
Scan type                                : Progressive
Bits/(Pixel*Frame)                       : 0.117
Stream size                              : 1.31 GiB (79%)
Writing library                          : x264 core 130 r2273
Encoding settings                        : cabac=1 / ref=2 / deblock=1:0:0 / analyse=0x1:0x131 / me=hex / subme=7 / psy=1 / psy_rd=1.00:0.00 / mixed_ref=0 / me_range=16 / chroma_me=1 / trellis=1 / 8x8dct=0 / cqm=0 / deadzone=21,11 / fast_pskip=1 / chroma_qp_offset=-2 / threads=6 / lookahead_threads=1 / sliced_threads=0 / nr=0 / decimate=1 / interlaced=0 / bluray_compat=0 / constrained_intra=0 / bframes=3 / b_pyramid=0 / b_adapt=1 / b_bias=0 / direct=3 / weightb=1 / open_gop=0 / weightp=2 / keyint=240 / keyint_min=24 / scenecut=40 / intra_refresh=0 / rc_lookahead=40 / rc=abr / mbtree=1 / bitrate=1900 / ratetol=1.0 / qcomp=0.60 / qpmin=10 / qpmax=69 / qpstep=4 / vbv_maxrate=24000 / vbv_bufsize=24000 / nal_hrd=none / ip_ratio=1.40 / aq=1:1.00
Language                                 : Italian
Default                                  : Yes
Forced                                   : No
DURATION                                 : 01:41:54.584000000
NUMBER_OF_FRAMES                         : 146750
NUMBER_OF_BYTES                          : 2445084378
_STATISTICS_WRITING_APP                  : mkvmerge v8.3.0 ('Over the Horizon') 64bit
_STATISTICS_WRITING_DATE_UTC             : 2018-09-30 12:31:06
_STATISTICS_TAGS                         : BPS DURATION NUMBER_OF_FRAMES NUMBER_OF_BYTES

Audio
ID                                       : 2
Format                                   : AC-3
Format/Info                              : Audio Coding 3
Mode extension                           : CM (complete main)
Codec ID                                 : A_AC3
Duration                                 : 1h 41mn
Bit rate mode                            : Constant
Bit rate                                 : 448 Kbps
Channel(s)                               : 6 channels
Channel positions                        : Front: L C R, Side: L R, LFE
Sampling rate                            : 48.0 KHz
Bit depth                                : 16 bits
Compression mode                         : Lossy
Delay relative to video                  : 1mn 5s
Stream size                              : 327 MiB (19%)
Language                                 : Italian
Default                                  : Yes
Forced                                   : No
DURATION                                 : 01:41:54.592000000
NUMBER_OF_FRAMES                         : 191081
NUMBER_OF_BYTES                          : 489167360
_STATISTICS_WRITING_APP                  : mkvmerge v8.3.0 ('Over the Horizon') 64bit
_STATISTICS_WRITING_DATE_UTC             : 2018-09-30 12:31:06
_STATISTICS_TAGS                         : BPS DURATION NUMBER_OF_FRAMES NUMBER_OF_BYTES






Info: Per scaricare devi usare un client come uTorrent o Transmission
AnnounceURL
udp://tracker.coppersurfer.tk:6969/announce
Hash b9ebcd6595627c33de6efe5196289de8e68b11e3
Peers seeds: 56 , leech: 181
Size 1.66 GB
Completato 84x
Aggiunto 09.10.18 - 18:10:37
Uploader   robbyrs
Votazione (Voti: 0)


Condividi questo bittorrent:


html/blog:


bbcode/forum:




Aggiungi Commento


counter